top of page

Group

Public·95 members

Download 'LINK' Gli Eroi Di Telemark


SCHEDAregia: Anthony Mannsoggetto: John Drummond, Knut Haukeld sceneggiatura: Ben Barzman, Ivan Moffatfotografia: Robert Kraskermontaggio: Bert Batesmusiche: Malcolm Arnoldpaese: UKanno: 1965durata: 131 min.colore: B/N-Colore PANAVISION TECHNICOLORaudio: sonorogenere: guerra, azione, drammatico, storicoproduzione: BENJAMIN FISZ PER BRUTON FILM PRODUCTIONS, THE RANK ORGANISATION FILM PRODUCTIONS LTDdistribuzione: RANK - GOLDEN VIDEO, LANTERNA HOME VIDEOCASTKirk Douglas : Dr. Rolf PedersenRichard Harris: Knut StraudUlla Jacobsson: Anna PedersenMichael Redgrave: zio di AnnaDavid Weston : ArneSebastian Breaks : GunnarJohn Golighty : FreddyAlan Howard : OliPatrick Jordan: HenrikWilliam Marlowe : ClausBrook Williams: EinarRoy Dotrice: JensenAnton Diffring: Major FrickRalph Michael: NilssenEric Porter: TerbovenTRAMASeconda Guerra Mondiale: i nazisti installano in Norvegia una fabbrica di acqua pesante, indispensabile per la costruzione della bomba atomica. Un eroico commando partigiano (dopo molti tentativi andati a vuoto) mette fuori uso gli impianti. I tedeschi li ripristinano in fretta e imbarcano per la Germania il prodotto radioattivo, ma i patrioti norvegesi riescono fortunosamente ad affondare il battello sul quale viaggia il materiale. (FilmTV.it)RECENSIONENel 1942, aiutato dai resistenti norvegesi, un commando USA tenta di sabotare l'importante impianto di Telemark dove i tedeschi fabbricano acqua pesante per la costruzione della bomba atomica. Ispirato a un episodio storico, è un discreto film d'azione, ma la tensione s'infiacca presto e genera una certa monotonia. C'è una bella fotografia di R. Krasker. Personaggi convenzionali. (Morandini)DATI TECNICI (Mediainfo)GeneralComplete name : Film - Guerra - Gli Eroi Di Telemark - K Douglas,R Harris.aviFormat : AVIFormat/Info : Audio Video InterleaveFile size : 1.00 GiBDuration : 2h 1mnOverall bit rate : 1 175 KbpsWriting library : VirtualDub build 15584/releaseVideoID : 0Format : MPEG-4 VisualFormat settings, BVOP : NoFormat settings, QPel : NoFormat settings, GMC : No warppointsFormat settings, Matrix : Default (H.263)Codec ID : DX50Codec ID/Hint : DivX 5Duration : 2h 1mnBit rate : 780 KbpsWidth : 512 pixelsHeight : 384 pixelsDisplay aspect ratio : 4:3Frame rate : 25.000 fpsResolution : 8 bitsColorimetry : 4:2:0Scan type : ProgressiveBits/(Pixel*Frame) : 0.159Stream size : 680 MiB (66%)Writing library : DivX 5.2.1 (DrDivX 106) (UTC 2004-09-08)AudioFormat : ADPCMCodec ID : 11Codec ID/Hint : IntelDuration : 2h 1mnBit rate mode : ConstantBit rate : 384 KbpsChannel(s) : 2 channelsSampling rate : 48.0 KHzResolution : 4 bitsStream size : 336 MiB (33%)Interleave, duration : 43 ms (1.06 video frame)Interleave, preload duration : 467 ms




download Gli eroi di Telemark


Download Zip: https://www.google.com/url?q=https%3A%2F%2Furlcod.com%2F2u6Bct&sa=D&sntz=1&usg=AOvVaw2qvX4r3VYPBu4mFK2qc6bS


About

Welcome to the group! You can connect with other members, ge...

Members

  • tpeters20
  • Hermiane Cielle
    Hermiane Cielle
  • Edward Turner
    Edward Turner
  • Henry Gaunt
    Henry Gaunt
  • Janet Gee
    Janet Gee
bottom of page